Скачать через торрент В поисках йети Mission Kathmandu: The Adventures of Nelly & Simon Фильм бесплатно в хорошем качестве torrent

Скачивайте на UnionPeer.org фильмы через торрент без регистрации. Новинки кино в хорошем качестве через торрент. На UnionPeer.org можно скачать через торрент фильмы 2014 и 2015 годов. Самые новые фильмы.

Скачать торрент В поисках йети Mission Kathmandu: The Adventures of Nelly & Simon бесплатно через .torrent фильм мультфильм сериал

Статистика раздачи
Размер:  3.26 GB   |    Зарегистрирован:  28 дней   |    .torrent скачан:  160 раз   |   
Раздают:  1  
   
загрузка...
 
Автор Сообщение

Galfimbul

avatar Galfimbul


В поисках йети /Mission Kathmandu: The Adventures of Nelly & Simon

Год выхода: 2017
Жанр: Мультфильм, комедия, приключения
Режиссер: Пьер Греко, Нэнси Севард
Роли озвучивают: Сильви Моро, Гийом Леме-Тивьерж, Рашид Бадури, Александрина Уоррен, Стефан Крит, Эдгар Фруатье, Себастьен Бенуа, Бертран Ален, Саймон-Пьер Гарипи, Мартин Бойли

О фильме:
Увлекательные приключения частного детектива Нелли и ботаника-ученого Саймона, которые искренне верят в существование снежного человека Йети.
Чтобы доказать, что мифический зверь существует, исследователям придется отправиться в самое сердце Гималаев и найти его!



Страна: Канада
Студия: Productions 10th Ave
Продолжительность: 01:24:10
Перевод: Дублированный | iTunes

Файл
Качество: WEB-DL 1080p
Формат: MKV
Кодек: MPEG-4 AVC
Видео: 1912x1028 (1,85:1), 23,976 fps, MPEG-4 AVC ~ 5151 Kbps avg, 0.109 bit/pixel
Аудио: AC3, 48 kHz, 6 ch, ~384.00 kbps avg | русский |iTunes

Субтитры: Отсутствуют
Общее
Уникальный идентификатор : 154010657682001290003178561823941885721 (0x73DD5FAD52C47BFFDCF9A2AB7EEC7F19)
Полное имя : V_POISKAH_ETTY (2018) WEB-DL 1080p.mkv
Формат : Matroska
Версия формата : Version 4 / Version 2
Размер файла : 3,26 Гбайт
Продолжительность : 1 ч. 24 м.
Общий поток : 5536 Кбит/сек
Название фильма : В поисках йети (2018)
Дата кодирования : UTC 2018-10-23 04:04:26
Программа кодирования : mkvmerge v27.0.0 ('Metropolis') 64-bit
Библиотека кодирования : libebml v1.3.6 + libmatroska v1.4.9

Видео
Идентификатор : 1
Формат : AVC
Формат/Информация : Advanced Video Codec
Профиль формата : High@L4
Настройки формата : CABAC / 4 Ref Frames
Параметр CABAC формата : Да
Параметр RefFrames формата : 4 кадра
Идентификатор кодека : V_MPEG4/ISO/AVC
Продолжительность : 1 ч. 24 м.
Битрейт : 5151 Кбит/сек
Ширина : 1912 пикселей
Высота : 1028 пикселей
Соотношение сторон : 1,85:1
Режим частоты кадров : Постоянный
Частота кадров : 23,976 (24000/1001) кадра/сек
Цветовое пространство : YUV
Субдискретизация насыщенности : 4:2:0
Битовая глубина : 8 бит
Тип развёртки : Прогрессивная
Бит/(Пиксели*Кадры) : 0.109
Размер потока : 3,03 Гбайт (93%)
Заголовок : V_POISKAH_ETTY (2018) WEB-DL 1080p
Язык : English
Default : Да
Forced : Нет
Цветовой диапазон : Limited
Основные цвета : BT.709
Характеристики трансфера : BT.709
Коэффициенты матрицы : BT.709

Аудио
Идентификатор : 2
Формат : AC-3
Формат/Информация : Audio Coding 3
Идентификатор кодека : A_AC3
Продолжительность : 1 ч. 24 м.
Вид битрейта : Постоянный
Битрейт : 384 Кбит/сек
Каналы : 6 каналов
Расположение каналов : Front: L C R, Side: L R, LFE
Частота : 48,0 КГц
Частота кадров : 31,250 кадров/сек (1536 SPF)
Битовая глубина : 16 бит
Метод сжатия : С потерями
Размер потока : 231 Мбайт (7%)
Заголовок : iTunes
Язык : Russian
Default : Да
Forced : Нет

Меню
00:00:00.000 : en:1
00:03:39.000 : en:2
00:13:18.000 : en:3
00:22:32.000 : en:4
00:32:50.000 : en:5
00:43:19.000 : en:6
00:55:55.000 : en:7
01:06:02.000 : en:8
01:12:20.000 : en:9
01:21:30.000 : en:10
Источник http://BlaTor.org

Трекер:  [ 23-Окт-2018 07:30 ]

  

Скачать .torrent

Размер .torrent файла 16 KB


Размер: 3.26 GB
Хэш (hash) релиза: 31ce1c122124cdb2c143cca00d19d2bffe089d17
Подписка на обновления:

Торренты, похожие на В поисках йети Mission Kathmandu: The Adventures of Nelly & Simon скачать торрент

Форум Название Автор Размер S L Добавлен
Мультфильмы 2016-2018 (Новинки мультфильмов) ·%· В поисках йети / Mission Kathmandu: The Adventures of Nelly & Simon (2017) WEB-DLRip от MegaPeer | iTunes Galfimbul 15589847041.45 GB 0 0 1540313449

19:50

23-Окт-18

Еще никто не оставлял запись к записи скачать торрент В поисках йети Mission Kathmandu: The Adventures of Nelly & Simon . Будь первым!

!Обратная связь