Скачать через торрент Женщина в зеркале Серии: 1-4 из 4 Фильм бесплатно в хорошем качестве torrent

Скачивайте на UnionPeer.org фильмы через торрент без регистрации. Новинки кино в хорошем качестве через торрент. На UnionPeer.org можно скачать через торрент фильмы 2014 и 2015 годов. Самые новые фильмы.

Скачать торрент Женщина в зеркале Серии: 1-4 из 4 бесплатно через .torrent фильм мультфильм сериал

Статистика раздачи
Размер:  2.31 GB   |    Зарегистрирован:  1 месяц 22 дня   |    .torrent скачан:  173 раза   |   
Раздают:  1  
   
загрузка...
 
Автор Сообщение

aleksan55

avatar aleksan55


Женщина в зеркале

Год выпуска: 2018
Страна: Россия | NRG Film | Хитфильм продакшн
Жанр: детектив, мелодрама
Продолжительность: 00:46:00
Субтитры: нет
Режиссёр:Руслан Ибрагимов

В ролях:Елена Полянская, Кирилл Жандаров, Анна Вартанян, Ольга Кирсанова-Миропольская, Дмитрий Фрид, Егор Кутенков, Татьяна Рассказова, Анна Слынько, Елена Мартыненко, Игорь Ботвин, Константин Воробьёв, Жанна Куприянова, Даниил Васильев
Описание:
Татьяна долго ждала, когда Михаил уйдёт от жены. И вот этот день настал, они будут жить вместе. Только это счастливое начало быстро оказывается финалом романа. Страшно не то, что прекрасный принц на глазах превращается в чудовище, а то, что он втягивает её в водоворот, в котором тонет сам. Теперь у обоих тайный враг – и это последнее, что их объединяет. Этот враг невидим и всемогущ, и он близко, очень близко...


Качество: SATRip-AVC
Формат: MKV
Видео кодек: H.264
Аудио кодек: AC3
Видео: MPEG4 Video (H264), 720x400, 25fps,1600 Kbps,bit/pixel 0.222
Аудио : AC3 48000Hz, stereo, 192 kbps,2 ch
Общее
Уникальный идентификатор : 213442902400560684126999471126990307759 (0xA0939B933617E34B8F3E84B9363C41AF)
Полное имя : H:\Женщина в зеркале\01 серия_Женщина в зеркале_rip by_Aleksan55.mkv
Формат : Matroska
Версия формата : Version 2
Размер файла : 599 Мбайт
Продолжительность : 46 м. 42 с.
Общий поток : 1794 Кбит/сек
Дата кодирования : UTC 2018-09-29 09:56:06
Программа кодирования : mkvmerge v7.8.0 ('River Man') 32bit built on Apr 3 2015 12:11:22
Библиотека кодирования : libebml v1.3.1 + libmatroska v1.4.2

Видео
Идентификатор : 1
Формат : AVC
Формат/Информация : Advanced Video Codec
Профиль формата : High@L4.1
Параметр CABAC формата : Да
Параметр ReFrames формата : 14 кадров
Идентификатор кодека : V_MPEG4/ISO/AVC
Продолжительность : 46 м. 42 с.
Битрейт : 1600 Кбит/сек
Ширина : 720 пикселей
Высота : 400 пикселей
Соотношение сторон : 16:9
Режим частоты кадров : Постоянный
Частота кадров : 25,000 кадров/сек
Цветовое пространство : YUV
Субдискретизация насыщенности : 4:2:0
Битовая глубина : 8 бит
Тип развёртки : Прогрессивная
Бит/(Пиксели*Кадры) : 0.222
Размер потока : 523 Мбайт (87%)
Библиотека кодирования : x264 core 146 r2538 121396c
Настройки программы : cabac=1 / ref=14 / deblock=1:-1:-1 / analyse=0x3:0x133 / me=umh / subme=9 / psy=1 / psy_rd=0.90:0.15 / mixed_ref=0 / me_range=32 / chroma_me=1 / trellis=2 / 8x8dct=1 / cqm=0 / deadzone=21,11 / fast_pskip=1 / chroma_qp_offset=-3 / threads=12 / lookahead_threads=1 / sliced_threads=0 / nr=0 / decimate=0 / interlaced=0 / bluray_compat=0 / constrained_intra=0 / bframes=14 / b_pyramid=2 / b_adapt=1 / b_bias=0 / direct=3 / weightb=1 / open_gop=0 / weightp=2 / keyint=250 / keyint_min=25 / scenecut=40 / intra_refresh=0 / rc_lookahead=40 / rc=2pass / mbtree=1 / bitrate=1600 / ratetol=1.0 / qcomp=0.60 / qpmin=0 / qpmax=39 / qpstep=4 / cplxblur=20.0 / qblur=0.5 / ip_ratio=1.40 / aq=1:1.00
Default : Да
Forced : Нет
Цветовой диапазон : Limited
Основные цвета : BT.601 PAL
Характеристики трансфера : BT.470 System B, BT.470 System G
Коэффициенты матрицы : BT.601

Аудио
Идентификатор : 2
Формат : AC-3
Формат/Информация : Audio Coding 3
Расширение режима : CM (complete main)
Параметр Endianness формата : Big
Идентификатор кодека : A_AC3
Продолжительность : 46 м. 42 с.
Вид битрейта : Постоянный
Битрейт : 192 Кбит/сек
Каналы : 2 канала
Расположение каналов : Front: L R
Частота : 48,0 КГц
Частота кадров : 31,250 кадров/сек (1536 spf)
Битовая глубина : 16 бит
Метод сжатия : С потерями
Размер потока : 64,2 Мбайт (11%)
Default : Да
Forced : Нет :


Трекер:  [ 29-Сен-2018 18:45 ]

  

Скачать .torrent

Размер .torrent файла 12 KB


Размер: 2.31 GB
Хэш (hash) релиза: 0dff3fc672b16c93d59673802113ceb438cebdaa
Подписка на обновления:

Еще никто не оставлял запись к записи скачать торрент Женщина в зеркале Серии: 1-4 из 4 . Будь первым!

!Обратная связь