Скачать через торрент Платформа 45 Rig 45 Фильм бесплатно в хорошем качестве torrent

Скачивайте на UnionPeer.org фильмы через торрент без регистрации. Новинки кино в хорошем качестве через торрент. На UnionPeer.org можно скачать через торрент фильмы 2014 и 2015 годов. Самые новые фильмы.

Скачать торрент Платформа 45 Rig 45 бесплатно через .torrent фильм мультфильм сериал

Статистика раздачи
Размер:  9.49 GB   |    Зарегистрирован:  3 месяца 23 дня   |    .torrent скачан:  86 раз   |   
Раздают:  1  
   
загрузка...
 
Автор Сообщение

Galfimbul

avatar Galfimbul


Платформа 45
Rig 45
Год выпуска: 2018
Страна: Щвеция
Жанр: Триллер
Продолжительность: 00:45:00

Перевод: Субтитры Ali+sher

Режиссёр: Per Hanefjord / Пер Ханефьёрд

В ролях: Бьёрн Бенгтссон, Девид Денсик, Якоб Офребро, Лиза Хенни, Катрин Уолкер.
Описание: Андреа (Кэтрин Уокер), специалист по оценке ущерба из компании Benthos Oil, за два дня до Рождества вынуждена отправиться на нефтяную платформу №45, чтобы расследовать несчастный случай со смертельным исходом. Андреа обнаруживает, что члены экипажа неохотно идут на контакт и явно что-то скрывают. Вскоре разражается шторм, связь с материком потеряна, и становится ясно, что это не несчастный случай, а убийство. И убийца - один из членов экипажа. Но кто?
Сэмпл: http://sendfile.su/1433413

Качество: WEB-DL
Формат: MKV
Видео: AVC at 4741 Кбит/сек 1920 x 1080 (1.778) at 25.000 fps
Аудио: AC-3 at 384 Кбит/сек 6 каналов, 48,0 КГц
Субтитры: .srt, встроены в контейнер

Реклама:
отсутствует

Видео предоставлено ВК-группой "Скандинавский калейдоскоп"
Формат : Matroska
Версия формата : Version 4 / Version 2
Размер файла : 1,58 Гбайт
Продолжительность : 44 м. 7 с.
Режим общего битрейта : Переменный
Общий поток : 5127 Кбит/сек
Дата кодирования : UTC 2018-07-29 11:51:33
Программа кодирования : mkvmerge v20.0.0 ('I Am The Sun') 64-bit
Библиотека кодирования : libebml v1.3.5 + libmatroska v1.4.8

Видео
Идентификатор : 1
Формат : AVC
Формат/Информация : Advanced Video Codec
Профиль формата : High@L4.1
Настройки формата : CABAC / 2 Ref Frames
Параметр CABAC формата : Да
Параметр RefFrames формата : 2 кадра
Идентификатор кодека : V_MPEG4/ISO/AVC
Продолжительность : 44 м. 7 с.
Вид битрейта : Переменный
Битрейт : 4741 Кбит/сек
Максимальный битрейт : 7200 Кбит/сек
Ширина : 1920 пикселей
Высота : 1080 пикселей
Соотношение сторон : 16:9
Режим частоты кадров : Постоянный
Частота кадров : 25,000 кадров/сек
Цветовое пространство : YUV
Субдискретизация насыщенности : 4:2:0
Битовая глубина : 8 бит
Тип развёртки : Прогрессивная
Бит/(Пиксели*Кадры) : 0.091
Размер потока : 1,46 Гбайт (92%)
Default : Да
Forced : Нет

Аудио
Идентификатор : 2
Формат : AC-3
Формат/Информация : Audio Coding 3
Идентификатор кодека : A_AC3
Продолжительность : 44 м. 7 с.
Вид битрейта : Постоянный
Битрейт : 384 Кбит/сек
Каналы : 6 каналов
Расположение каналов : Front: L C R, Side: L R, LFE
Частота : 48,0 КГц
Частота кадров : 31,250 кадров/сек (1536 SPF)
Битовая глубина : 16 бит
Метод сжатия : С потерями
Размер потока : 121 Мбайт (7%)
Заголовок : AC-3 5.1
Язык : English
ServiceKind/String : Complete Main
Default : Да
Forced : Нет

Текст
Идентификатор : 3
Формат : UTF-8
Идентификатор кодека : S_TEXT/UTF8
Идентификатор кодека/Информация : UTF-8 Plain Text
Продолжительность : 41 м. 53 с.
Битрейт : 80 бит/сек
ElementCount : 370
Размер потока : 24,7 Кбайт (0%)
Default : Да
Forced : Нет
Предыдущие и альтернативные раздачи

Трекер:  [ 29-Июл-2018 15:48 ]

  

Скачать .torrent

Размер .torrent файла 24 KB


Размер: 9.49 GB
Хэш (hash) релиза: c82fc570ac8d9f16a3b46784dd99bb4542683ae7
Подписка на обновления:

Торренты, похожие на Платформа 45 Rig 45 скачать торрент

Форум Название Автор Размер S L Добавлен
Зарубежные сериалы ·%· Платформа 45 / Rig 45 / Сезон: 1 / Серии: 1-4 из 6 (Пер Ханефьорд) [2018, Швеция, триллер, WEB-DL 1080p] DVO (ViruseProject) + Original Galfimbul 70449077686.56 GB 0 0 1533188892

08:48

2-Авг-18

Еще никто не оставлял запись к записи скачать торрент Платформа 45 Rig 45 . Будь первым!

!Обратная связь