Скачать через торрент Касл-Рок Castle Rock Фильм бесплатно в хорошем качестве torrent

Скачивайте на UnionPeer.org фильмы через торрент без регистрации. Новинки кино в хорошем качестве через торрент. На UnionPeer.org можно скачать через торрент фильмы 2014 и 2015 годов. Самые новые фильмы.

Скачать торрент Касл-Рок Castle Rock бесплатно через .torrent фильм мультфильм сериал

Статистика раздачи
Размер:  974 MB   |    Зарегистрирован:  3 месяца 24 дня   |    .torrent скачан:  85 раз   |   
Раздают:  1  
   
загрузка...
 
Автор Сообщение

Galfimbul

avatar Galfimbul


Касл-Рок / Castle Rock
Производство: США
Год выпуска: 2018
Жанр: ужасы, фэнтези, триллер, драма, детектив
Продолжительность: ~ 00:43:00 серия
Премьера (мир): 20 июля 2018, ...
Премьера (РФ): 26 июля 2018
Перевод: Профессиональный (многоголосый закадровый) | AlexFilm
Режиссёр: Майкл Аппендаль, Дэниэл Эттиэс, Кевин Хукс
В ролях: Мелани Лински, Энн Кьюсак, Скотт Гленн, Андре Холланд, Джейн Леви, Терри О’Куинн, Билл Скарсгард,
Описание:
Начальник тюрьмы Шоушенк совершает самоубийство, и после его смерти в закрытом крыле здания находят странного юношу. Никто не знает, кто это, а сам он называет только имя адвоката Генри Дивера, который вырос в Касл-Роке. Дивер возвращается в город, где когда-то трагически погиб его отец, и пытается выяснить историю загадочного заключенного.
<div class="post-box-default">
<div class="post-box" style="border-color: #d2d2d2; background: #000000;">Предыдущие и альтернативные раздачи</div>
</div>

Качество видео: WEB-DL 720p
Формат: MKV
Видео: AVC, 1280 x 640 (2.000), 23.976 fps, ~2110 kbps
Аудио Rus: AC-3, 48 kHz, 2 ch, 384 kbps |AlexFilm|
Аудио Eng: AC-3, 48 kHz, 2 ch, 384 kbps |Original|
Субтитры: английские
Реклама: отсутствует
ОбщееУникальный идентификатор : 303394084674146780134270623190194116149 (0xE43F9344655DE11F77367D591F58D635)Полное имя : E:\_Сериалы\_Сериалы\Касл-Рок\Castle.Rock.s01.720p.WEB-DL.Rus.Eng.AlexFilm\Castle.Rock.s01e01.WEB-DL.720p.Rus.Eng.AlexFilm.mkvФормат : MatroskaВерсия формата : Version 4 / Version 2Размер файла : 974 МбайтПродолжительность : 54 м. 32 с.Общий поток : 2496 Кбит/секНазвание фильма : Castle Rock 1x01 @ AlexFilmДата кодирования : UTC 2018-07-28 19:32:30Программа кодирования : mkvmerge v25.0.0 ('Prog Noir') 64-bitБиблиотека кодирования : libebml v1.3.6 + libmatroska v1.4.9

ВидеоИдентификатор : 1Формат : AVCФормат/Информация : Advanced Video CodecПрофиль формата : High@L4.1Настройки формата : CABAC / 5 Ref FramesПараметр CABAC формата : ДаПараметр RefFrames формата : 5 кадровИдентификатор кодека : V_MPEG4/ISO/AVCПродолжительность : 54 м. 32 с.Битрейт : 2110 Кбит/секШирина : 1280 пикселейВысота : 640 пикселейСоотношение сторон : 2,000Режим частоты кадров : ПостоянныйЧастота кадров : 23,976 (24000/1001) кадра/секЦветовое пространство : YUVСубдискретизация насыщенности : 4:2:0Битовая глубина : 8 битТип развёртки : ПрогрессивнаяБит/(Пиксели*Кадры) : 0.107Размер потока : 823 Мбайт (85%)Библиотека кодирования : x264 core 155 r2901 7d0ff22Настройки программы : cabac=1 / ref=5 / deblock=1:-3:-3 / analyse=0x3:0x113 / me=hex / subme=8 / psy=1 / psy_rd=1.00:0.15 / mixed_ref=1 / me_range=16 / chroma_me=1 / trellis=2 / 8x8dct=1 / cqm=0 / deadzone=21,11 / fast_pskip=1 / chroma_qp_offset=-3 / threads=20 / lookahead_threads=3 / sliced_threads=0 / nr=0 / decimate=1 / interlaced=0 / bluray_compat=0 / constrained_intra=0 / bframes=3 / b_pyramid=2 / b_adapt=2 / b_bias=0 / direct=3 / weightb=1 / open_gop=0 / weightp=2 / keyint=250 / keyint_min=23 / scenecut=40 / intra_refresh=0 / rc_lookahead=50 / rc=crf / mbtree=1 / crf=18.0 / qcomp=0.60 / qpmin=0 / qpmax=69 / qpstep=4 / ip_ratio=1.40 / aq=1:1.00Язык : EnglishDefault : ДаForced : НетЦветовой диапазон : LimitedКоэффициенты матрицы : BT.709

Аудио #1Идентификатор : 2Формат : AC-3Формат/Информация : Audio Coding 3Идентификатор кодека : A_AC3Продолжительность : 54 м. 32 с.Вид битрейта : ПостоянныйБитрейт : 192 Кбит/секКаналы : 2 каналаРасположение каналов : Front: L RЧастота : 48,0 КГцЧастота кадров : 31,250 кадров/сек (1536 SPF)Битовая глубина : 16 битМетод сжатия : С потерямиРазмер потока : 74,9 Мбайт (8%)Заголовок : DD2.0 AlexFilmЯзык : RussianServiceKind/String : Complete MainDefault : ДаForced : Нет

Аудио #2Идентификатор : 3Формат : AC-3Формат/Информация : Audio Coding 3Идентификатор кодека : A_AC3Продолжительность : 54 м. 32 с.Вид битрейта : ПостоянныйБитрейт : 192 Кбит/секКаналы : 2 каналаРасположение каналов : Front: L RЧастота : 48,0 КГцЧастота кадров : 31,250 кадров/сек (1536 SPF)Битовая глубина : 16 битМетод сжатия : С потерямиРазмер потока : 74,9 Мбайт (8%)Язык : EnglishServiceKind/String : Complete MainDefault : НетForced : Нет

ТекстИдентификатор : 4Формат : UTF-8Идентификатор кодека : S_TEXT/UTF8Идентификатор кодека/Информация : UTF-8 Plain TextПродолжительность : 54 м. 15 с.Битрейт : 44 бит/секElementCount : 618Размер потока : 17,6 Кбайт (0%)Язык : EnglishDefault : ДаForced : Нет


Раздача ведётся путём добавления новых серий; при каждом добавлении создаётся новый торрент.
Чтобы начать докачку новой серии, пользователям необходимо сделать следующее:
1. остановить скачивание,
2. удалить старый торрент у себя из клиента (старые серии удалять не надо),
3. скачать новый торрент и запустить его у себя в клиенте вместо старого, при этом указать клиенту путь в старую папку, куда и должно происходить скачивание новых серий.

Ваш клиент при этом должен произвести хеширование (проверку) старой папки (если не производит сам - помогите ему сделать это), и будет докачивать только те серии которых у вас ещё нет. Старые серии при этом не удаляются, а продолжают раздаваться!

Eсли вы уже удалили старые серии, то предотвратить повторную закачку старых серий можно, отжав галочку в соответствующих местах при запуске нового торрента. По возможности, желательно не удалять старые серии как можно дольше, чтобы релизёр не столько продолжал раздавать старые серии, а смог сконцентрироваться на новых.

Совет для тех, кто не хочет ждать перехеширования:
Создайте ещё одну папку рядом с папкой сериала (рядом, а не в ней!!!). Каждую новую серию после удачной загрузки копируйте в новую папку так чтобы ваша основная папка всегда была пуста. Когда ваш новый торрент предложит вам закачать все файлы, выберете только последнюю. Для сидирования же укажите адрес новой папки.

Как закачать отдельный файл из торрента или докачать ранее пропущенные файлы торрента!

1. Открыть торрент
2. Снять галки с тех файлов торрента, которые мы не хотим закачивать. Оставляем только на нужных нам файлах (файле).
3. Нажать О.К.

В клиенте utorrent

Инструкция

1) Открыть торрент


2) Снять галки с тех файлов торрента, которые мы не хотим закачивать:

* либо вручную, снимая с каждого файла галку( скрин №1)
* либо, нажав кнопку "Снять метки (Select None)", сняв сразу со всех файлов(скрин №2)
№1
№2
Оставляем только на нужных нам файлах (файле).
3)Нажать О.К

Приятного просмотра!!!

Трекер:  [ 28-Июл-2018 22:48 ]

  

Скачать .torrent

Размер .torrent файла 19 KB


Размер: 974 MB
Хэш (hash) релиза: 9556f74e3faff74c9de6d0eef84beaf3b4b3d88d
Подписка на обновления:

Торренты, похожие на Касл-Рок Castle Rock скачать торрент

Форум Название Автор Размер S L Добавлен
Зарубежные сериалы ·%· Касл-Рок / Castle Rock / Сезон 1 / Серии 1-3 из 10 (Майкл Аппендаль) [2018, США, ужасы, фэнтези, триллер, драма, детектив, WEB-DL 1080p] MVO (Jaskier) + Original Galfimbul 45118955884.2 GB 0 0 1532965705

18:48

30-Июл-18

Зарубежные сериалы ·%· Касл-Рок / Castle Rock / Сезон 1 / Серии 1-3 из 10 (Майкл Аппендаль) [2018, США, ужасы, фэнтези, триллер, драма, детектив, WEB-DL 720p] MVO (Jaskier) + Original Galfimbul 22087450162.06 GB 0 0 1532870307

16:18

29-Июл-18

Зарубежные сериалы ·%· Касл-Рок / Castle Rock / Сезон 1 / Серии 1-3 из 10 (Майкл Аппендаль) [2018, США, ужасы, фэнтези, триллер, драма, детектив, WEB-DLRip] MVO (Jaskier) + Original Galfimbul 18961162241.77 GB 0 0 1532870290

16:18

29-Июл-18

Зарубежные сериалы ·%· Касл-Рок / Castle Rock / Сезон: 1 / Серии: 1-3 из 10 (Майкл Аппендаль, Дэниэл Эттиэс, Кевин Хукс) [2018, США, ужасы, триллер, драма, детектив, WEBRip] MVO (Baibako) + Original Galfimbul 22917939202.13 GB 0 0 1532864888

14:48

29-Июл-18

Еще никто не оставлял запись к записи скачать торрент Касл-Рок Castle Rock . Будь первым!

!Обратная связь